Toplam 3 adet sonuctan sayfa basi 1 ile 3 arasi kadar sonuc gösteriliyor
Like Tree1Likes
  • 1 Post By flatr0n

Konu: The Watch | Gözüm Üzerinizde | 2012 | WEBRip | XViD | UNiQUE

  1. #1
    Durum
    Offline
    flatr0n - ait Kullanıcı Resmi (Avatar)
    -LEGENDS NEVER DIE-
    Üyelik tarihi
    30.Ekim.2008
    Mesajlar
    5,312
    Konular
    4140

    Korku The Watch | Gözüm Üzerinizde | 2012 | WEBRip | XViD | UNiQUE

    The Watch | Gözüm Üzerinizde | 2012 | WEBRip | XViD | UNiQUE


    [Ziyaretçiler üye olmadan, üyelerimiz ise konuya mesaj yazmadan linkleri görüntüleyemezler.Hemen ÜYE OL!]


    [IMDB]1298649[/IMDB]

    Film, eşlerinden ve ailelerinden biraz uzak kalmak ve kafa dinlemek için mahallenin güvenliğini korumak bahanesiyle sözde "suç gözetleme timi" kuran bir grup erkeğin hikâyesine odaklanıyor. Fakat işler başta iyi gitse de, kafadarlar kendilerini dünyayı tehlikeyi atan bir komplonun ortasında bulmakta gecikmeyecektir.

    Kod:
    Source Used
     
    Toothfairy./  iTUNES 720p..........Thanks bro
    
    
    
    Format                                   : AVI
    Format/Info                              : Audio Video Interleave
    File size                                : 1.42 GiB
    Duration                                 : 1h 42mn
    Overall bit rate                         : 1 993 Kbps
    Movie name                               : The Watch (HD)
    Writing application                      : VirtualDubMod 1.5.10.2 (build 2540/release)
    Writing library                          : VirtualDubMod build 2540/release
    
    Video
    ID                                       : 0
    Format                                   : MPEG-4 Visual
    Format profile                           : Advanced Simple@L5
    Format settings, BVOP                    : 2
    Format settings, QPel                    : No
    Format settings, GMC                     : No warppoints
    Format settings, Matrix                  : Default (H.263)
    Muxing mode                              : Packed bitstream
    Codec ID                                 : XVID
    Codec ID/Hint                            : XviD
    Duration                                 : 1h 42mn
    Bit rate                                 : 1 600 Kbps
    Width                                    : 720 pixels
    Height                                   : 304 pixels
    Display aspect ratio                     : 2.35:1
    Frame rate                               : 23.976 fps
    Color space                              : YUV
    Chroma subsampling                       : 4:2:0
    Bit depth                                : 8 bits
    Scan type                                : Progressive
    Compression mode                         : Lossy
    Bits/(Pixel*Frame)                       : 0.305
    Stream size                              : 1.14 GiB (80%)
    Writing library                          : XviD 64
    
    Audio
    ID                                       : 1
    Format                                   : AC-3
    Format/Info                              : Audio Coding 3
    Mode extension                           : CM (complete main)
    Format settings, Endianness              : Big
    Codec ID                                 : 2000
    Duration                                 : 1h 42mn
    Bit rate mode                            : Constant
    Bit rate                                 : 384 Kbps
    Channel(s)                               : 6 channels
    Channel positions                        : Front: L C R, Side: L R, LFE
    Sampling rate                            : 48.0 KHz
    Bit depth                                : 16 bits
    Compression mode                         : Lossy
    Stream size                              : 281 MiB (19%)
    Alignment                                : Split accross interleaves
    Interleave, duration                     : 42 ms (1.00 video frame)
    Interleave, preload duration             : 500 ms
    [Ziyaretçiler üye olmadan, üyelerimiz ise konuya mesaj yazmadan linkleri görüntüleyemezler.Hemen ÜYE OL!]
    [Ziyaretçiler üye olmadan, üyelerimiz ise konuya mesaj yazmadan linkleri görüntüleyemezler.Hemen ÜYE OL!]
    [Ziyaretçiler üye olmadan, üyelerimiz ise konuya mesaj yazmadan linkleri görüntüleyemezler.Hemen ÜYE OL!]

    ALTYAZI
    [Ziyaretçiler üye olmadan, üyelerimiz ise konuya mesaj yazmadan linkleri görüntüleyemezler.Hemen ÜYE OL!]

    Kod:
    http://letitbit.net/download/51878.53b9b9aa986ac795447bff6bb986/1298649.webrip.uniq.part1.rar.html
    http://letitbit.net/download/91586.952924acfba82f1e8d69ec3657f0/1298649.webrip.uniq.part2.rar.html
    Kod:
    http://turbobit.net/dpo7vku352to.html
    http://turbobit.net/vousxgiezl76.html
    Kod:
    http://ul.to/a31hyt50
    http://ul.to/90nf7vn5
    ardem57 likes this.


    PREMIUM ÜYELİK ALIP ÇALIŞMALARIMA DESTEK OLABİLİRSİNİZ... LÜTFEN KONULARIMDAKI LINKLERE TIKLAYARAK ALINIZ (AKTIF EDINIZ)

    !!! AKSİNİ BELİRTMEDİĞİM SÜRECE PAYLAŞIMLARIMDA LINKLER BİRBİRİ İLE UYUMLUDUR !!!

  2. #2
    Durum
    Offline
    show time - ait Kullanıcı Resmi (Avatar)
    Kameraman
    Üyelik tarihi
    02.Kasım.2008
    Mesajlar
    341
    Konular
    0

    Standart Cevap: The Watch | Gözüm Üzerinizde | 2012 | WEBRip | XViD | UNiQUE

    teşekkürler

  3. #3
    Durum
    Offline
    deccalxx - ait Kullanıcı Resmi (Avatar)
    YerliÜye
    Üyelik tarihi
    23.Eylül.2008
    Mesajlar
    31
    Konular
    0

    Standart Cevap: The Watch | Gözüm Üzerinizde | 2012 | WEBRip | XViD | UNiQUE

    ellerine sağlık

Bu Konu için Etiketler

film izle film indir film izle 2014 İlkbahar Modası dizi izle
vBulletin stat